Skip to main content

The McLovins Live at StrangeCreek Campout, Camp Kee-Wanee on 2013-05-24




The McLovins
2013-05-24
Wormtown Music Festival
Camp KeeWanee
Greenfield, MA
Main Stage

DPA 4011 > V3 Digital + SBD > DR680 (24/48)
SDHC Card > Sound Forge Pro 10.0 (Mix, Normalize, Fades, resample iZotope 64-Bit SRC, dither iZotope MBIT+ Dither) > CD Wav (tracking) > TLH > Flac (level 8)
TS at front corner of FOH (ROC)/DIN/approx. 8' high

Taped and Transferred by Brian V.

01. Birthday
02. Tokyo Tea
03. Cohesive
04. Tracy
05. Samson
06. Shivers
07. Break On Through
08. Shakedown Street > Rapper's Delight


Collection TheMcLovins
Band/Artist The McLovins
Venue StrangeCreek Campout, Camp Kee-Wanee
Location Greenfield, MA

Source DPA 4011 > V3 Digital + SBD > DR680 (24/48)
Lineage SDHC Card > Sound Forge Pro 10.0 (Mix, Normalize, Fades, resample iZotope 64-Bit SRC, dither iZotope MBIT+ Dither) > CD Wav (tracking) > TLH > Flac (level 8)
Taped by Brian V.
Transferred by Brian V.

Notes

Thanks to everyone that put StrangeCreek together and for the tapers spot.
***Support Bands That Allow Taping/Trading***

shntool output
length expanded size cdr WAVE problems fmt ratio filename
8:44.29 92501852 B --- -- ---xx flac 0.5326 mclovins2013-05-24s1t01.flac
9:20.48 98896940 B --- -- ---xx flac 0.5320 mclovins2013-05-24s1t02.flac
11:24.16 120695276 B --- -- ---xx flac 0.5407 mclovins2013-05-24s1t03.flac
3:50.44 40675532 B --- -- ---xx flac 0.5465 mclovins2013-05-24s1t04.flac
5:09.20 54554684 B --- -- ---xx flac 0.5351 mclovins2013-05-24s1t05.flac
8:15.15 87353324 B --- -- ---xx flac 0.5466 mclovins2013-05-24s1t06.flac
4:39.24 49272092 B --- -- ---xx flac 0.4915 mclovins2013-05-24s1t07.flac
9:00.69 95418332 B --- -- ---xx flac 0.5202 mclovins2013-05-24s1t08.flac
60:24.40 639368032 B 0.5320 (8 files)

Reviews

There are no reviews yet. Be the first one to write a review.
PEOPLE ALSO FOUND
The McLovins
by The McLovins
28
0
0
Source: DPA 4011 > V3 Digital > R44 (24/96)
The McLovins
by The McLovins
34
0
0
Source: DPA 4011 > V3 Digital + SBD > R44 (24/48)
The McLovins
by The McLovins
28
0
0
Source: DPA 4011 > V3 Digital + SBD > R44 (24/48)
The McLovins
by The McLovins
41
0
0
Source: DPA 4011 > V3 Digital + SBD > DR680 (24/48)
The McLovins
by The McLovins
126
0
0
Source: DPA 4011 > V3 Digital > R44 (24/96)
The McLovins
by The McLovins
19
0
0
Source: DPA 4011 > V3 Digital + SBD > DR680 (24/48)
Seed
by Seed
88
0
0
Source: DPA 4011 > V3 Digital > R44 (24/96)
Source: BSC1 (hypers) > Silver Cables > FR-2LE [BA TMod] (24/48)
Turbine
by Turbine
8
0
0
Source: BSC1(k3) + SBD > DR680 (24/48)
Relative Souls
by Relative Souls
21
0
0
Source: DPA 4011 > V3 Digital + SBD > DR680 (24/48)